Usuarios VIP

Disfruta de tus beneficios, Gracias por ser miembro VIP

Quitar Limites de descarga AQUI
Contraseña para descomprimir:
PELICULASZI.COM

Corazón Indomable (2020) Full HD WEB-DL 1080p Dual-Latino - PELICULASZI.COM


Contenido oulto: Para ver este contenido Inicia Sesión en tu cuenta VIP.


Format : Matroska
Format version : Version 4
File size : 5.67 GiB
Duration : 1 h 44 min
Overall bit rate : 7 765 kb/s
Movie name : Más contenido en: PELICULASZI.COM
Encoded date : UTC 2022-09-08 22:31:27
Writing application : mkvmerge v69.0.0 ('Day And Age') 64-bit
Writing library : libebml v1.4.2 + libmatroska v1.6.4

Video
ID : 1
Format : AVC
Format/Info : Advanced Video Codec
Format profile : High@L4
Format settings : CABAC / 2 Ref Frames
Format settings, CABAC : Yes
Format settings, Reference : 2 frames
Codec ID : V_MPEG4/ISO/AVC
Duration : 1 h 44 min
Bit rate : 6 995 kb/s
Width : 1 920 pixels
Height : 1 080 pixels
Display aspect ratio : 16:9
Frame rate mode : Constant
Frame rate : 25.000 FPS
Color space : YUV
Chroma subsampling : 4:2:0
Bit depth : 8 bits
Scan type : Progressive
Bits/(Pixel*Frame) : 0.135
Stream size : 5.11 GiB (90%)
Title : Más contenido en: PELICULASZI.COM
Writing library : x264 core 155 r2901 7d0ff22
Language : Spanish
Default : Yes
Forced : No
Color range : Limited
Color primaries : BT.709
Transfer characteristics : BT.709
Matrix coefficients : BT.709

Audio #1
ID : 2
Format : AC-3
Format/Info : Audio Coding 3
Commercial name : Dolby Digital
Codec ID : A_AC3
Duration : 1 h 44 min
Bit rate mode : Constant
Bit rate : 384 kb/s
Channel(s) : 6 channels
Channel layout : L R C LFE Ls Rs
Sampling rate : 48.0 kHz
Frame rate : 31.250 FPS (1536 SPF)
Compression mode : Lossy
Stream size : 287 MiB (5%)
Title : PELICULASZI.COM
Language : Spanish
Service kind : Complete Main
Default : Yes
Forced : No

Audio #2
ID : 3
Format : AC-3
Format/Info : Audio Coding 3
Commercial name : Dolby Digital
Codec ID : A_AC3
Duration : 1 h 44 min
Bit rate mode : Constant
Bit rate : 384 kb/s
Channel(s) : 6 channels
Channel layout : L R C LFE Ls Rs
Sampling rate : 48.0 kHz
Frame rate : 31.250 FPS (1536 SPF)
Compression mode : Lossy
Stream size : 287 MiB (5%)
Title : PELICULASZI.COM
Language : Finnish
Service kind : Complete Main
Default : Yes
Forced : No

Text
ID : 4
Format : UTF-8
Codec ID : S_TEXT/UTF8
Codec ID/Info : UTF-8 Plain Text
Duration : 1 h 40 min
Bit rate : 39 b/s
Count of elements : 984
Stream size : 29.2 KiB (0%)
Title : PELICULASZI.COM
Language : Spanish
Default : No
Forced : No


Reportar Links Caídos Visitas: 135