Usuarios VIP

Disfruta de tus beneficios, Gracias por ser miembro VIP

Quitar Limites de descarga AQUI
ContraseƱa para descomprimir:
PELICULASZI.COM

1917 (2019) HD WEB-DL 1080p Dual-Latino GRATIS

Gracias por visitarnos

Este contenido esta disponible para ver online en nuestro servidor privado con el centro multimedia emby. La opción de Streaming es solo para los miembros vip. Contamos con servidores de alta velocidad no tendrás interrupciones sin publicidad y un gran catálogo de películas y series .Hazte miembro VIP, seria como tener NF, AMZN, HBO, DYNP, entre otros servicios de Streaming en un solo lugar y al mejor precio, Obtén más información: Aquí

LINKS
Descargar por Google
http://exe.io/zjcNq17I

Descargar por Uptobox
http://exe.io/YE8cM

Descargar por MEGA
http://exe.io/HdZqb9J

Para llegar a los links de descarga hay que pasar por 1 Acortadores
Si eres de los que les molesta o no dan para pasar por los acotadores puedes obtener los beneficios de usuario VIP, obtén más la información dando clic AQUI

Format : Matroska
Format version : Version 4
File size : 7.15 GiB
Duration : 1 h 58 min
Overall bit rate : 8 606 kb/s
Movie name : 1917 (2019) - PELICULASZI.COM
Encoded date : UTC 2020-03-11 23:37:21
Writing application : mkvmerge v43.0.0 ('The Quartermaster') 64-bit
Writing library : libebml v1.3.10 + libmatroska v1.5.2

Video
ID : 1
Format : AVC
Format/Info : Advanced Video Codec
Format profile : High@L4
Format settings : CABAC / 4 Ref Frames
Format settings, CABAC : Yes
Format settings, Reference : 4 frames
Codec ID : V_MPEG4/ISO/AVC
Duration : 1 h 58 min
Bit rate mode : Constant
Bit rate : 7 580 kb/s
Nominal bit rate : 10 000 kb/s
Width : 1 920 pixels
Height : 800 pixels
Display aspect ratio : 2.40:1
Frame rate mode : Constant
Frame rate : 23.976 (24000/1001) FPS
Color space : YUV
Chroma subsampling : 4:2:0
Bit depth : 8 bits
Scan type : Progressive
Bits/(Pixel*Frame) : 0.206
Stream size : 6.30 GiB (88%)
Default : Yes
Forced : No
Color range : Limited
Color primaries : BT.709
Transfer characteristics : BT.709
Matrix coefficients : BT.709

Audio #1
ID : 2
Format : AC-3
Format/Info : Audio Coding 3
Commercial name : Dolby Digital
Codec ID : A_AC3
Duration : 1 h 58 min
Bit rate mode : Constant
Bit rate : 384 kb/s
Channel(s) : 6 channels
Channel layout : L R C LFE Ls Rs
Sampling rate : 48.0 kHz
Frame rate : 31.250 FPS (1536 SPF)
Compression mode : Lossy
Stream size : 327 MiB (4%)
Title : Latino
Language : Spanish
Service kind : Complete Main
Default : Yes
Forced : No

Audio #2
ID : 3
Format : E-AC-3
Format/Info : Enhanced AC-3
Commercial name : Dolby Digital Plus
Codec ID : A_EAC3
Duration : 1 h 58 min
Bit rate mode : Constant
Bit rate : 640 kb/s
Channel(s) : 6 channels
Channel layout : L R C LFE Ls Rs
Sampling rate : 48.0 kHz
Frame rate : 31.250 FPS (1536 SPF)
Compression mode : Lossy
Stream size : 545 MiB (7%)
Title : Inglés
Language : English
Service kind : Complete Main
Default : No
Forced : No

Text #1
ID : 4
Format : UTF-8
Codec ID : S_TEXT/UTF8
Codec ID/Info : UTF-8 Plain Text
Duration : 1 h 48 min
Bit rate : 0 b/s
Count of elements : 4
Stream size : 132 Bytes (0%)
Title : Forzados
Language : Spanish
Default : Yes
Forced : Yes

Text #2
ID : 5
Format : UTF-8
Codec ID : S_TEXT/UTF8
Codec ID/Info : UTF-8 Plain Text
Duration : 1 h 48 min
Bit rate : 38 b/s
Count of elements : 861
Stream size : 30.4 KiB (0%)
Title : Latino
Language : Spanish
Default : No
Forced : No

Text #3
ID : 6
Format : UTF-8
Codec ID : S_TEXT/UTF8
Codec ID/Info : UTF-8 Plain Text
Duration : 1 h 58 min
Bit rate : 40 b/s
Count of elements : 1473
Stream size : 35.4 KiB (0%)
Title : Inglés
Language : English
Default : No
Forced : No

Version Ligera 1080p Mp4

2.4 GB

Drive: http://exe.io/XUFv9M

Uptobox: http://exe.io/0sixDj

Mega: http://exe.io/0ucY13bj
Format : MPEG-4
Codec ID : M4V (isom/avc1/iso2/M4A /M4V /mp42)
File size : 2.40 GiB
Duration : 1 h 58 min
Overall bit rate mode : Variable
Overall bit rate : 2 892 kb/s
Movie name : 1917 (2019) HD WEB-Rip Ligera 1080p Dual-Latino
ContentType : Movie
Encoded date : UTC 2020-03-12 00:05:59
Tagged date : UTC 2020-03-12 00:07:27
Writing application : MkvToMp4 [www.mkvtomp4.ru] version: 0.224 (x64)

Video
ID : 1
Format : AVC
Format/Info : Advanced Video Codec
Format profile : High@L4.1
Format settings : CABAC / 4 Ref Frames
Format settings, CABAC : Yes
Format settings, Reference : 4 frames
Codec ID : avc1
Codec ID/Info : Advanced Video Coding
Duration : 1 h 58 min
Bit rate : 2 500 kb/s
Maximum bit rate : 10.9 Mb/s
Width : 1 920 pixels
Height : 798 pixels
Display aspect ratio : 2.40:1
Frame rate mode : Constant
Frame rate : 23.976 (24000/1001) FPS
Original frame rate : 23.976 (23976/1000) FPS
Color space : YUV
Chroma subsampling : 4:2:0
Bit depth : 8 bits
Scan type : Progressive
Bits/(Pixel*Frame) : 0.068
Stream size : 2.08 GiB (86%)
Writing library : x264 core 152 r2851M ba24899
Encoding settings : cabac=1 / ref=4 / deblock=1:-1:-1 / analyse=0x3:0x113 / me=umh / subme=9 / psy=1 / psy_rd=1.00:0.15 / mixed_ref=1 / me_range=24 / chroma_me=1 / trellis=2 / 8x8dct=1 / cqm=0 / deadzone=21,11 / fast_pskip=1 / chroma_qp_offset=-3 / threads=16 / lookahead_threads=4 / sliced_threads=0 / nr=0 / decimate=1 / interlaced=0 / bluray_compat=0 / constrained_intra=0 / bframes=3 / b_pyramid=2 / b_adapt=2 / b_bias=0 / direct=3 / weightb=1 / open_gop=0 / weightp=2 / keyint=250 / keyint_min=25 / scenecut=40 / intra_refresh=0 / rc_lookahead=50 / rc=2pass / mbtree=1 / bitrate=2500 / ratetol=1.0 / qcomp=0.60 / qpmin=0 / qpmax=69 / qpstep=4 / cplxblur=20.0 / qblur=0.5 / vbv_maxrate=31250 / vbv_bufsize=31250 / nal_hrd=none / filler=0 / ip_ratio=1.40 / aq=3:1.00
Language : English
Encoded date : UTC 2020-03-12 00:05:59
Tagged date : UTC 2020-03-12 00:06:48
Codec configuration box : avcC

Audio #1
ID : 2
Format : AAC LC
Format/Info : Advanced Audio Codec Low Complexity
Codec ID : mp4a-40-2
Duration : 1 h 58 min
Bit rate mode : Variable
Bit rate : 158 kb/s
Maximum bit rate : 222 kb/s
Channel(s) : 2 channels
Channel layout : L R
Sampling rate : 48.0 kHz
Frame rate : 46.875 FPS (1024 SPF)
Compression mode : Lossy
Stream size : 135 MiB (5%)
Title : Latino / Latino
Language : Spanish
Default : Yes
Alternate group : 1
Encoded date : UTC 2020-03-11 23:57:26
Tagged date : UTC 2020-03-12 00:06:48

Audio #2
ID : 3
Format : AAC LC
Format/Info : Advanced Audio Codec Low Complexity
Codec ID : mp4a-40-2
Duration : 1 h 58 min
Bit rate mode : Variable
Bit rate : 224 kb/s
Maximum bit rate : 232 kb/s
Channel(s) : 6 channels
Channel layout : C L R Ls Rs LFE
Sampling rate : 48.0 kHz
Frame rate : 46.875 FPS (1024 SPF)
Compression mode : Lossy
Stream size : 191 MiB (8%)
Title : Ingles / Ingles
Language : English
Default : No
Alternate group : 1
Encoded date : UTC 2020-03-12 00:06:36
Tagged date : UTC 2020-03-12 00:06:48

Text #1
ID : 4
Format : Timed Text
Muxing mode : sbtl
Codec ID : tx3g
Duration : 1 h 49 min
Bit rate mode : Variable
Bit rate : 0 b/s
Stream size : 147 Bytes (0%)
Title : Forzados / Forzados
Language : Spanish
Default : Yes
Forced : No
Alternate group : 2
Encoded date : UTC 2020-03-12 00:06:48
Tagged date : UTC 2020-03-12 00:06:48

Text #2
ID : 5
Format : Timed Text
Muxing mode : sbtl
Codec ID : tx3g
Duration : 1 h 49 min
Bit rate mode : Variable
Bit rate : 43 b/s
Stream size : 34.3 KiB (0%)
Title : Latino / Latino
Language : Spanish
Default : No
Forced : No
Alternate group : 2
Encoded date : UTC 2020-03-12 00:06:48
Tagged date : UTC 2020-03-12 00:06:48

Text #3
ID : 6
Format : Timed Text
Muxing mode : sbtl
Codec ID : tx3g
Duration : 1 h 58 min
Bit rate mode : Variable
Bit rate : 47 b/s
Stream size : 40.6 KiB (0%)
Title : Ingls / Ingls
Language : English
Default : No
Forced : No
Alternate group : 2
Encoded date : UTC 2020-03-12 00:06:48
Tagged date : UTC 2020-03-12 00:06:48


Reportar Error Visitas: 163