Usuarios VIP

Disfruta de tus beneficios, Gracias por ser miembro VIP

Quitar Limites de descarga AQUI
ContraseƱa para descomprimir:
PELICULASZI.COM

Escape Room: Sin Salida (2019) Full HD BRRip-Ligera 1080p Dual-Latino GRATIS




Descargar por Google Drive | Descargar por UptoBox | Descargar por MEGA



Para llegar a los links de descarga hay que pasar por 2 Acortadores
Si eres de los que les molesta o no dan para pasar por los acotadores puedes obtener los beneficios de usuario VIP, obtén más la información dando clic AQUI

Format : MPEG-4
Codec ID : M4V (isom/avc1/iso2/M4A /M4V /mp42)
File size : 2.02 GiB
Duration : 1 h 39 min
Overall bit rate mode : Variable
Overall bit rate : 2 898 kb/s
Movie name : Escape Room (2019) Full HD BRRip-Ligera 1080p Latino-Ingles - PELICULASZI COM
ContentType : Movie
Encoded date : UTC 2020-02-11 16:41:39
Tagged date : UTC 2020-02-11 16:42:54
Writing application : MkvToMp4 [www.mkvtomp4.ru] version: 0.224 (x64)

Video
ID : 1
Format : AVC
Format/Info : Advanced Video Codec
Format profile : High@L4.1
Format settings : CABAC / 4 Ref Frames
Format settings, CABAC : Yes
Format settings, Reference : 4 frames
Codec ID : avc1
Codec ID/Info : Advanced Video Coding
Duration : 1 h 39 min
Bit rate : 2 500 kb/s
Maximum bit rate : 13.7 Mb/s
Width : 1 920 pixels
Height : 808 pixels
Display aspect ratio : 2.40:1
Frame rate mode : Constant
Frame rate : 23.976 (24000/1001) FPS
Original frame rate : 23.976 (23976/1000) FPS
Color space : YUV
Chroma subsampling : 4:2:0
Bit depth : 8 bits
Scan type : Progressive
Bits/(Pixel*Frame) : 0.067
Stream size : 1.74 GiB (86%)
Writing library : x264 core 152 r2851M ba24899
Encoding settings : cabac=1 / ref=4 / deblock=1:-1:-1 / analyse=0x3:0x113 / me=umh / subme=9 / psy=1 / psy_rd=1.00:0.15 / mixed_ref=1 / me_range=24 / chroma_me=1 / trellis=2 / 8x8dct=1 / cqm=0 / deadzone=21,11 / fast_pskip=1 / chroma_qp_offset=-3 / threads=32 / lookahead_threads=4 / sliced_threads=0 / nr=0 / decimate=1 / interlaced=0 / bluray_compat=0 / constrained_intra=0 / bframes=3 / b_pyramid=2 / b_adapt=2 / b_bias=0 / direct=3 / weightb=1 / open_gop=0 / weightp=2 / keyint=250 / keyint_min=25 / scenecut=40 / intra_refresh=0 / rc_lookahead=50 / rc=2pass / mbtree=1 / bitrate=2500 / ratetol=1.0 / qcomp=0.60 / qpmin=0 / qpmax=69 / qpstep=4 / cplxblur=20.0 / qblur=0.5 / vbv_maxrate=31250 / vbv_bufsize=31250 / nal_hrd=none / filler=0 / ip_ratio=1.40 / aq=3:1.00
Language : English
Encoded date : UTC 2020-02-11 16:41:39
Tagged date : UTC 2020-02-11 16:42:17
Codec configuration box : avcC

Audio #1
ID : 2
Format : AAC LC
Format/Info : Advanced Audio Codec Low Complexity
Codec ID : mp4a-40-2
Duration : 1 h 39 min
Bit rate mode : Variable
Bit rate : 162 kb/s
Maximum bit rate : 233 kb/s
Channel(s) : 2 channels
Channel layout : L R
Sampling rate : 48.0 kHz
Frame rate : 46.875 FPS (1024 SPF)
Compression mode : Lossy
Stream size : 116 MiB (6%)
Title : Latino _ PELICULASZI.COM / Latino _ PELICULASZI.COM
Language : Spanish
Default : Yes
Alternate group : 1
Encoded date : UTC 2020-02-11 16:34:19
Tagged date : UTC 2020-02-11 16:42:17

Audio #2
ID : 3
Format : AAC LC
Format/Info : Advanced Audio Codec Low Complexity
Codec ID : mp4a-40-2
Duration : 1 h 39 min
Bit rate mode : Variable
Bit rate : 224 kb/s
Maximum bit rate : 236 kb/s
Channel(s) : 6 channels
Channel layout : C L R Ls Rs LFE
Sampling rate : 48.0 kHz
Frame rate : 46.875 FPS (1024 SPF)
Compression mode : Lossy
Stream size : 160 MiB (8%)
Title : Ingles _ PELICULASZI.COM / Ingles _ PELICULASZI.COM
Language : English
Default : No
Alternate group : 1
Encoded date : UTC 2020-02-11 16:42:10
Tagged date : UTC 2020-02-11 16:42:17

Text #1
ID : 4
Format : Timed Text
Muxing mode : sbtl
Codec ID : tx3g
Duration : 1 h 30 min
Bit rate mode : Variable
Bit rate : 0 b/s
Stream size : 43.0 Bytes (0%)
Title : Forzados _ PELICULASZI.COM / Forzados _ PELICULASZI.COM
Language : Spanish
Default : Yes
Forced : No
Alternate group : 2
Encoded date : UTC 2020-02-11 16:42:17
Tagged date : UTC 2020-02-11 16:42:17

Text #2
ID : 5
Format : Timed Text
Muxing mode : sbtl
Codec ID : tx3g
Duration : 1 h 34 min
Bit rate mode : Variable
Bit rate : 67 b/s
Stream size : 46.7 KiB (0%)
Title : Latino _ PELICULASZI.COM / Latino _ PELICULASZI.COM
Language : Spanish
Default : No
Forced : No
Alternate group : 2
Encoded date : UTC 2020-02-11 16:42:17
Tagged date : UTC 2020-02-11 16:42:17


Reportar Error Visitas: 215